ffmpeg: was will mir diese Fehlermeldung sagen?

Dieses Thema im Forum "Multimedia Allgemein" wurde erstellt von k_munic, 13.08.2006.

  1. k_munic

    k_munic Thread Starter MacUser Mitglied

    Beiträge:
    8.928
    Zustimmungen:
    1.101
    MacUser seit:
    23.07.2006
    Input #0, mov,mp4,m4a,3gp,3g2,mj2, from '/Users/kmunic/Desktop/aavormix3.mov':
    Sun Aug 13 13:08:07 CEST 2006
    .1, start: 0.000000, bitrate: 29506 kb/s
    Stream #0.0(eng): Audio: pcm_s16be, 44100 Hz, mono, 705 kb/s
    Stream #0.1(eng), 25.00 fps(r): Video: dvvideo, yuv420p, 720x576
    Codec type mismatch for mapping #0.0 -> #0.0


    hab grad für mich entdeckt, dass ffmpeg 0.0.9w auch nach flv exportieren soll...
    brav alles installiert (mencoder etc)…

    versuche nun, einen kleinen, selbstgedrehten dv clip zu wandlen - nach sekunden schon PING! und o.g. Fehlermeldung…
    ne andere audio spur kann es auch nicht sein, could not find input stream0.2... (wenn ich spur 1 statt 0 wähle...)

    und nu'?
    welchen codec type erwartet den ffmpeg??

    DANKE!
     
Die Seite wird geladen...

Diese Seite empfehlen