Wie .cue/.bin in .dmg oder .iso konvertieren?

  1. gaianchild

    gaianchild Thread StarterMacUser Mitglied

    Mitglied seit:
    16.01.2003
    Beiträge:
    1.680
    Zustimmungen:
    58
    Moin!

    Input: .cue/.bin
    Output: .dmg oder .iso oder .toast

    Wie geht das?
    • Das OSX-Festplattentool samt DiskImageMounter will cue oder bin nicht annehmen
    • Gumby nimmt das bin zwar an, produziert mir jedoch 2xisos und 1xwav (ist zwar irgendwie auch korrekt, da das Image zwei Daten- und ein Audiotrack hat, aber ich hätt´s halt doch lieber in einem File)
    • Mit Toast kann man das Image zwar brennen oder auf den Desktop mounten, aber eben nicht konvertieren oder als Image wieder speichern... oder habe ich da etwas verpasst?
    Danke für Eure Hilfe!

    GaianChild
     
    gaianchild, 08.02.2004
  2. M4DM3N

    M4DM3NMacUser Mitglied

    Mitglied seit:
    11.12.2003
    Beiträge:
    1.658
    Zustimmungen:
    6
    ich benenne immer das bin in iso um und gut is... dann kannst Du es brennen und mounten und was willst Du noch?? Warum konvertieren??? Um was zu erreichen? :confused:
     
    M4DM3N, 08.02.2004
  3. gaianchild

    gaianchild Thread StarterMacUser Mitglied

    Mitglied seit:
    16.01.2003
    Beiträge:
    1.680
    Zustimmungen:
    58
    Leider funktioniert das bei dem File nicht... vom Apple DiskImageMounter bekomme ich dann immer ein "Keine aktivierbaren Filesysteme". Vielleicht liegt´s ja daran, dass die CD mehrere Tracks hat...

    TRACK 01 MODE1/2352
    INDEX 01 00:00:00
    REM MSF: 00:00:00 = LBA: 0
    TRACK 02 AUDIO
    INDEX 01 75:36:35
    REM MSF: 75:36:35 = LBA: 340235
    TRACK 03 MODE1/2352
    INDEX 01 75:49:18
    REM MSF: 75:49:18 = LBA: 341193


    Mit Toast kann ich das von .bin in .iso umbenannte File dann tatsächlich mounten, mit DiskImageMounter aber leider nicht... Kann DiskImageMounter denn grundsätzlich keine ISOS mit mehreren Tracks mounten?

    Weiss das jemand?
     
    gaianchild, 08.02.2004
Die Seite wird geladen...
Ähnliche Themen - cue bin dmg
  1. viskem
    Antworten:
    3
    Aufrufe:
    2.593
    heiko.w
    28.03.2010
  2. DrNibbert
    Antworten:
    4
    Aufrufe:
    2.603
    DrNibbert
    14.09.2009
  3. Sensay
    Antworten:
    5
    Aufrufe:
    790
    noel.mayor
    28.03.2007
  4. Hasenmaler
    Antworten:
    3
    Aufrufe:
    771
    Hasenmaler
    23.08.2005
  5. joehanc
    Antworten:
    2
    Aufrufe:
    730
    joehanc
    24.02.2005