Benutzerdefinierte Suche

Wie bekomme ich Videodaten von der DVD auf die Festplatte?

  1. tom_sl

    tom_sl Thread StarterMacUser Mitglied

    Mitglied seit:
    03.05.2005
    Beiträge:
    63
    Zustimmungen:
    0
    Hi, folgendes Problem habe ich:

    Ich habe eine Sony Handycam DVD403E. Habe jetzt ca. 10 Filme auf der DVD und wollte die DVD auf meinem Computer speichern. Leider gibt er nur "Video-TS" und andere Daten aus so das ich die Filme nicht einzelnd via Quicktime sehen kann. Welche Möglichkeit habe ich jetzt noch, bzw welches Programm brauche ich damit ich die Filme auf die Festplatte bekomme?
     
    tom_sl, 09.11.2005
  2. Antithum

    AntithumMacUser Mitglied

    Mitglied seit:
    20.04.2005
    Beiträge:
    83
    Zustimmungen:
    0
    Höchstwahrscheinlich musst du das ganze neu berechnen, dazu findest du eine Anleitung auf http://home.comcast.net/~appleguru/dvdrip.html (Achtung Englisch). Wenn du einfach den Video_TS-Ordner kopiert hast, könntest du mal versuchen, die etwas größeren Dateien mal mit dem VLC zu öffnen (möglicherweise kommt dann kein Ton, und Quicktime wirds dadurch immer noch nicht - der VLC ist da "offener"). Viel Glück (& Geduld beim Codieren ;-) ),
    Antithum
     
    Antithum, 09.11.2005
  3. essorg

    essorgMacUser Mitglied

    Mitglied seit:
    25.10.2004
    Beiträge:
    119
    Zustimmungen:
    0
    **********
     
    essorg, 09.11.2005
  4. tom_sl

    tom_sl Thread StarterMacUser Mitglied

    Mitglied seit:
    03.05.2005
    Beiträge:
    63
    Zustimmungen:
    0
    Funzt auch nicht
     
    tom_sl, 09.11.2005
  5. GeistXY

    GeistXYMacUser Mitglied

    Mitglied seit:
    27.03.2003
    Beiträge:
    1.083
    Zustimmungen:
    23
    Hallo,

    wenn Du im Besitz von Toast bist, einfach die VOB´s ins Video Fenster reinziehen und als DV eportieren, dann kannst Du die Filme mit QT sehen und mit QT Plus schneiden ect.

    Gruß

    XY
     
    GeistXY, 09.11.2005
  6. tom_sl

    tom_sl Thread StarterMacUser Mitglied

    Mitglied seit:
    03.05.2005
    Beiträge:
    63
    Zustimmungen:
    0
    @GeistXY

    das sieht schon mal richtig gut aus. Der einzige Fehler der jetzt noch kommt ist:

    "Dolby Digital AC-3 support requires Toast with Jam. "VTS_01_1.VOB cannot be used"

    Gruß Tom
     
    tom_sl, 09.11.2005
  7. pdr2002

    pdr2002MacUser Mitglied

    Mitglied seit:
    28.01.2004
    Beiträge:
    6.849
    Zustimmungen:
    241
    nimm ffmpegX und konvertiere die .vob Datei in .mov, dann kannst Du den Film in Quicktime sehen, oder per imovie schneiden, außerdem benötigst Du nicht soviel Platz, wie mit dem .dv Format. :cool:
     
    pdr2002, 09.11.2005
  8. tom_sl

    tom_sl Thread StarterMacUser Mitglied

    Mitglied seit:
    03.05.2005
    Beiträge:
    63
    Zustimmungen:
    0
    Nicht schlecht, doch leider bekomm ich auch hier einen Fehler

    Input #0, mpeg, from '/Users/tom/Desktop/michelle/VIDEO_TS/VTS_01_1.VOB':
    00:00:08.4, start: 0.228178, bitrate: 532949 kb/s
    Stream #0.0: Video: mpeg2video, 720x576, 25.00 fps
    Stream #0.1: Audio: ac3, 48000 Hz, 5:1, 448 kb/s
    Incorrect frame rate
     
    tom_sl, 09.11.2005
  9. GeistXY

    GeistXYMacUser Mitglied

    Mitglied seit:
    27.03.2003
    Beiträge:
    1.083
    Zustimmungen:
    23
    Hallo,

    welche Toast Version hast Du ?
    bei mir macht er das ohne Fehlermeldung.

    Gruß

    XY
     
    GeistXY, 09.11.2005
  10. derolf

    derolfMacUser Mitglied

    Mitglied seit:
    25.10.2005
    Beiträge:
    22
    Zustimmungen:
    0
    Noch ne kleine Anmerkung:

    ... und das dauert ......

    ich meine die Konvertierung!
     
    derolf, 09.11.2005
Die Seite wird geladen...
Ähnliche Themen - bekomme Videodaten DVD
  1. karinhuegel
    Antworten:
    40
    Aufrufe:
    871
    Badoshin
    22.06.2017
  2. TITO976
    Antworten:
    13
    Aufrufe:
    33.890
    roedert
    21.10.2011
  3. Hula
    Antworten:
    19
    Aufrufe:
    6.478
    toncasi
    15.04.2007
  4. zimperlein
    Antworten:
    9
    Aufrufe:
    1.842
    martinmacco
    16.02.2006
  5. KAISERFRANZZ
    Antworten:
    16
    Aufrufe:
    1.468